#TITLE:Crazy;
#SUBTITLE:OLD STEPS;
#ARTIST:DJ Doo;
#TITLETRANSLIT:;
#SUBTITLETRANSLIT:;
#ARTISTTRANSLIT:;
#CREDIT:Roxor Games;
#BANNER:crazy-banner.png;
#BACKGROUND:crazy.png;
#LYRICSPATH:;
#CDTITLE:;
#MUSIC:DJ Doo - Crazy.ogg;
#MUSICBYTES:0;
#MUSICLENGTH:120.006;
#OFFSET:-0.010;
#SAMPLESTART:37.620;
#SAMPLELENGTH:12.000;
#SELECTABLE:YES;
#BPMS:0.000=135.000;
#STOPS:;
#BGCHANGES:;
#FIRSTBEAT:16.000;
#LASTBEAT:268.000;

//---------------dance-single - BASIC----------------
#NOTES:
     dance-single:
     BASIC:
     easy:
     4:
     0.307,0.307,0.292,0.000,0.000:






              
0000
0000
0000
0000
,              
0000
0000
0000
0000
,              
0000
0000
0000
0000
,              
0000
0000
0000
0000
,              
0001
0000
0100
0000
,              
0010
0000
1000
0000
,              
1010
0100
0101
0000
,              
0010
0000
0100
0001
,              
0010
0000
0100
1000
,               
0010
0000
1000
0001
,               
0010
0000
0100
0001
,               
0010
0000
0010
0001
,               
0010
0000
0100
1000
,               
0010
0010
0101
0010
,               
0100
1000
1010
0000
,               
0100
0000
0010
1000
,               
0100
0000
0001
0010
,               
0100
0000
1000
0010
,               
0100
0000
0010
0001
,               
0100
0000
1000
0010
,               
0100
0000
0010
1000
,               
0100
0100
1010
0100
,               
0010
0001
0011
0000
,               
0010
0100
0010
1001
,               
0010
0100
0010
1001
,               
0100
0010
0100
1001
,               
0100
0010
0100
1001
,               
0001
0010
0001
1010
,               
1000
0100
1000
1100
,               
0001
0010
0100
0010
,               
0001
0100
0010
0010
,               
1001
0000
0001
0010
,               
0100
0000
0010
0100
,               
0001
0000
0100
0001
,               
0010
0000
0100
0100
,               
0010
0000
0010
0010
,               
1000
0000
0010
0100
,               
0100
0000
0100
0100
,               
1000
0000
0001
0001
,               
0010
0000
0010
1000
,               
1000
0000
0100
1000
,               
0010
0010
0101
0010
,               
0100
1000
1010
0000
,               
0010
0100
0010
1001
,               
0010
0100
0010
1001
,               
0100
0010
0100
1001
,               
0100
0010
0100
1001
,               
0001
0010
0001
1010
,               
1000
0100
1000
1100
,               
0010
0100
0001
0010
,               
1000
0010
0001
0100
,               
0010
0100
0010
1001
,               
0010
0100
0010
1001
,               
0100
0010
0100
1001
,               
0100
0010
0100
1001
,               
0001
0010
0001
1010
,               
1000
0100
1000
1100
,               
0010
0100
0010
0001
,               
0100
0010
1000
0100
,               
0010
0100
0010
1001
,               
0010
0100
0010
1001
,               
0100
0010
0100
1001
,               
0100
0010
0100
1001
,               
0001
0010
0001
1010
,               
1000
0100
1000
1100
,               
0010
0001
0100
0010
,               
1000
0100
0010
1001
,               
1001
0000
0000
0000;

//---------------dance-single - ANOTHER----------------
#NOTES:
     dance-single:
     ANOTHER:
     medium:
     5:
     0.370,0.335,0.517,0.000,0.000:





              
0000
0000
0000
0000
,              
0000
0000
0000
0000
,              
0000
0000
0000
0000
,              
0000
0000
0000
0000
,              
0001
1000
0100
0001
,              
0010
0100
1000
0001
,              
1010
0100
0101
0000
,              
1010
0001
0100
0001
,              
1010
0001
0100
1000
,               
0110
0001
1000
0001
,               
1010
0100
0100
0001
,               
1010
0100
0010
0001
,               
0011
0100
0100
1000
,               
0010
0010
0101
0010
,               
0100
1000
1010
0000
,               
0101
0010
0010
1000
,               
1100
0100
0001
0010
,               
0101
0100
1000
0010
,               
0110
1000
0010
0001
,               
0101
0100
1000
0010
,               
1100
0001
0010
1000
,               
0100
0100
1010
0100
,               
0010
0001
0011
0000
,               
0010
0100
0010
1001
,               
0010
0100
0010
1001
,               
0100
0010
0100
1001
,               
0100
0010
0100
1001
,               
0001
0010
0001
1010
,               
1000
0100
1000
1100
,               
0001
0010
0100
0010
,               
0001
0100
0010
0010
,               
1001
0100
0001
0010
,               
0101
0100
0010
0100
,               
1001
0100
0100
0001
,               
1010
0001
0100
0100
,               
0011
0100
0010
0010
,               
1100
0001
0010
0100
,               
0110
1000
0100
0100
,               
1010
0100
0001
0001
,               
1010
0001
0010
1000
,               
1010
0001
0100
1000
,               
0010
0010
0101
0010
,               
0100
1000
1010
0000
,               
0010
0100
0010
1001
,               
0010
0100
0010
1001
,               
0100
0010
0100
1001
,               
0100
0010
0100
1001
,               
0001
0010
0001
1010
,               
1000
0100
1000
1100
,               
0010
0100
1001
0010
,               
1000
0010
0101
0100
,               
0010
0100
0010
1001
,               
0010
0100
0010
1001
,               
0100
0010
0100
1001
,               
0100
0010
0100
1001
,               
0001
0010
0001
1010
,               
1000
0100
1000
1100
,               
0010
0100
0011
0001
,               
0100
0010
1010
0100
,               
0010
0100
0010
1001
,               
0010
0100
0010
1001
,               
0100
0010
0100
1001
,               
0100
0010
0100
1001
,               
0001
0010
0001
1010
,               
1000
0100
1000
1100
,               
0010
0001
0110
0010
,               
1100
0100
0010
1001
,               
1001
0000
0000
0000;

//---------------dance-single - MANIAC----------------
#NOTES:
     dance-single:
     MANIAC:
     hard:
     6:
     0.470,0.447,1.000,0.067,0.000:




              
0000
0000
0000
0000
,              
0000
0000
0000
0000
,              
0000
0000
0000
0000
,              
0000
0000
0000
0000
,              
0001
1000
0110
0001
,              
1010
0100
1010
0001
,              
1010
0100
0101
0010
,              
1010
0001
1100
0001
,              
1010
0001
1100
1000
,               
0110
0001
1001
0001
,               
1010
0100
0110
0001
,               
1010
0100
1010
0001
,               
0011
0100
0110
1000
,               
0020
0030
0102
0010
,               
0103
1000
1010
0001
,               
0101
0010
0011
1000
,               
1100
0100
0011
0010
,               
0101
0100
1010
0010
,               
0110
1000
1010
0001
,               
0101
0100
1010
0010
,               
1100
0001
0110
1000
,               
0200
0300
2010
0100
,               
3010
0001
0011
1000
,               
0110
0100
0110
1001
,               
0110
0100
0110
1001
,               
0110
0010
0110
1001
,               
0110
0010
0110
1001
,               
1001
0010
1001
1010
,               
1001
0100
1001
1100
,               
0001
0110
0100
1010
,               
0001
0101
0010
0100
,               
1001
0100
0001
1010
,               
0101
0010
0010
0101
,               
0001
0110
0100
0001
,               
1010
0101
0100
0100
,               
0011
0100
0011
0010
,               
1100
0001
0011
0100
,               
0110
1000
0110
0100
,               
1010
0100
1001
0001
,               
1010
0001
0011
1000
,               
1010
0001
0110
1000
,               
0020
0030
0102
0010
,               
0103
1000
1100
0100
,               
0110
0100
0110
1001
,               
0110
0100
0110
1001
,               
0110
0010
0110
1001
,               
0110
0010
0110
1001
,               
1001
0010
1001
1010
,               
1001
0100
1001
1100
,               
0010
0100
1001
0010
,               
1100
0010
0101
0100
,               
0110
0100
0110
1001
,               
0110
0100
0110
1001
,               
0110
0010
0110
1001
,               
0110
0010
0110
1001
,               
1001
0010
1001
1010
,               
1001
0100
1001
1100
,               
0010
0100
0011
0001
,               
0100
0010
1010
0100
,               
0110
0100
0110
1001
,               
0110
0100
0110
1001
,               
0110
0010
0110
1001
,               
0110
0010
0110
1001
,               
1001
0010
1001
1010
,               
1001
0100
1001
1100
,               
0010
0001
1020
0130
,               
0201
0310
1000
0100
,               
1001
0000
0000
0000;

//---------------dance-double - ANOTHER----------------
#NOTES:
     dance-double:
     ANOTHER:
     medium:
     4:
     0.287,0.307,0.150,0.058,0.004:


              
00000000
00000000
00000000
00000000
,              
00000000
00000000
00000000
00000000
,              
00000000
00000000
00000000
00000000
,              
00000000
00000000
00000000
00000000
,              
00010000
00000000
00000000
00000000
,              
00001000
00000000
00000000
00000000
,              
00001000
00000000
00001000
00000000
,              
00001000
00001000
00001000
00000000
,              
00000000
00000000
00020020
00000000
00000000
00000000
00000000
00000000
00000000
00000000
00000000
00000000
00000000
00000000
00000000
00000000
00000000
00000000
00000000
00000000
00000000
00000000
00000000
00000000
00000000
00000000
00000000
00000000
00000000
00000000
00000000
00000000
00000000
00000000
00000000
00000000
00000000
00000000
00000000
00000000
00000000
00000000
00000000
00000000
00000000
00000000
00000000
00000000
00030030
00000000
00000000
00000000
00000000
00000000
00000000
00000000
00000000
00000000
00000000
00000000
00000000
00000000
00000000
00000000
00000000
00000000
00000000
00000000
00000000
00000000
00000000
00000000
00000000
00000000
00000000
00000000
00000000
00000000
00000000
00000000
00000000
00000000
00000000
00000000
00000000
00000000
00000000
00000000
00000000
00000000
00000000
00000000
00000000
00000000
00000000
00000000
,               
00001000
00000100
00010000
00000010
,               
00001000
00000100
00010000
00000010
,               
00010000
00001000
00010000
00000010
,               
00001000
00000010
00000010
00001000
,               
00000100
00000010
00000001
00001000
,               
00000100
00000001
00001000
00000001
,               
00000100
00000010
00000100
00001000
,               
00000001
00000100
00001000
00000100
,               
00000010
00000000
00001000
00000000
,               
00001100
00000000
00000010
00000000
,               
00000110
00000000
00001000
00000000
,               
00011000
00000000
00001000
00000000
,               
00011000
00100000
00010000
00001000
,               
00000100
00100000
00001000
00100000
,               
00010000
00000100
00100000
00000100
,               
00010000
01000000
00010000
00001000
,               
00100000
00001000
00010000
01000000
,               
00100000
00010000
00100000
00001000
,               
00001000
01000000
00010000
00100000
,               
00100000
00100000
01000000
00010000
,               
00000000
01000000
01000000
01010000
,               
00000000
00010000
00010000
01010000
,               
00000000
00100000
00100000
01100000
,               
00000000
01000000
01000000
01001000
,               
00000000
00100000
00100000
00101000
,               
00000000
00010000
00010000
00110000
,               
00000000
01000000
01000000
01001000
,               
00000000
00000100
00000100
00010100
,               
00000000
00101000
00101000
00010100
,               
00000000
00001000
00000100
00010000
,               
00001000
00100000
00010000
00001000
,               
00000100
00001000
00000100
00010000
,               
00000100
00000010
00001000
00000100
,               
00010000
00001000
00001000
00000100
,               
00000010
00000100
00000100
00010000
,               
00000100
00000100
00000010
00001000
,               
00000001
00000100
00000001
00000010
,               
00001000
00000100
00000010
00000100
,               
00000001
00000010
00001000
00000010
,               
00001000
00000010
00001000
00000100
,               
00010000
00001000
00000100
00001000
,               
00000100
00010000
00000010
00001000
,               
00000010
00000100
00010000
00001000
,               
00010000
00001000
00010000
00000100
,               
00001000
00010000
00001000
00100000
,               
00001000
00000100
00100000
00100000
,               
00100000
00010000
00001000
00001000
,               
00001000
00100000
01000000
01000000
,               
01000000
00001000
00010000
00010000
,               
00010000
00001000
00100000
00100000
,               
00100000
01000000
00010000
00010000
,               
00010000
01000000
10000000
10000000
,               
10000000
01000000
00100000
00100000
,               
00100000
10000000
00010000
00010000
,               
00010000
01000000
00100000
10010000
,               
10010000
00000000
00200000
00000000
,               
00302000
00000000
02003000
00000000
,               
03020000
00000000
00230000
00000000
,               
00300000
00000000
00000000
00000000
,;

//---------------dance-solo - ANOTHER----------------
#NOTES:
     dance-solo:
     ANOTHER:
     medium:
     4:
     0.287,0.307,0.150,0.058,0.004:

              
000000
000000
000000
000000
,              
000000
000000
000000
000000
,              
000000
000000
000000
000000
,              
000000
000000
000000
000000
,              
000100
000000
000000
000000
,              
000010
000000
000000
000000
,              
000010
000000
000010
000000
,              
000010
000010
000010
000000
,              
000000
020020
000000
000000
000000
000000
000000
000000
000000
000000
000000
000000
000000
000000
000000
000000
000000
000000
000000
000000
000000
000000
000000
000000
030030
000000
000000
000000
000000
000000
000000
000000
000000
000000
000000
000000
000000
000000
000000
000000
000000
000000
000000
000000
000000
000000
000000
000000
,               
001000
000100
010000
000010
,               
001000
000100
010000
000010
,               
010000
001000
010000
000010
,               
001000
001000
001000
100000
,               
010000
001000
000100
100000
,               
010000
000100
100000
000100
,               
010000
001000
010000
100000
,               
000100
000100
001000
000100
,               
000010
000000
001000
000000
,               
001100
000000
000010
000000
,               
000110
000000
001000
000000
,               
011000
000000
000010
000000
,               
000110
001000
000100
000010
,               
000001
001000
000010
001000
,               
000100
000001
001000
000001
,               
000100
010000
000100
000010
,               
001000
000010
000100
010000
,               
001000
000100
001000
000010
,               
000010
010000
000100
001000
,               
001000
001000
010000
000100
,               
000000
010000
010000
010100
,               
000000
000100
000100
010100
,               
000000
001000
001000
011000
,               
000000
010000
010000
010010
,               
000000
001000
001000
001010
,               
000000
000100
000100
001100
,               
000000
010000
010000
010010
,               
000000
000001
000001
000101
,               
000000
001010
001010
000101
,               
000000
000010
000001
000100
,               
000010
001000
000100
000010
,               
000001
001000
000100
010000
,               
000100
000010
001000
000100
,               
010000
001000
001000
000100
,               
000010
000100
000100
010000
,               
000100
010000
001000
100000
,               
000100
010000
000100
001000
,               
100000
010000
001000
010000
,               
000100
001000
100000
001000
,               
100000
000010
001000
000100
,               
010000
001000
000100
001000
,               
000100
010000
000010
001000
,               
000010
000100
010000
001000
,               
010000
000010
000100
000001
,               
000010
000100
000010
001000
,               
000010
000001
001000
001000
,               
001000
000100
000010
000010
,               
000010
001000
010000
010000
,               
010000
000010
000100
000100
,               
000100
000010
001000
001000
,               
001000
010000
000100
000100
,               
000100
010000
100000
100000
,               
100000
010000
001000
001000
,               
001000
100000
000100
000100
,               
000100
010000
001000
100100
,               
100100
000000
002000
000000
,               
003020
000000
020030
000000
,               
030200
000000
002300
000000
,               
003000
000000
000000
000000;
